We would use parameters UseShellExecute = false and CreateNoWindow = true so that the command line window does not show up. This should be typed exactly (letter casing does not matter on Windows® systems) as displayed in the list of DirectShow devices (Image 1-1): ffmpeg -rtbufsize 1500M -f dshow -r 30 -i video=”UScreenCapture”. unsigned char * buf_end : End of the data, may be less than buffer+buffer_size if the read function returned less data than requested, e. Currently we want to use 32kb to preserve existing behavior // with the previous URLProtocol based approach. If the buffering reaches this value, incoming frames will be dropped. The videos will be converted using ffmpeg and images will be compressed to 92 25000000/0/0 buffer size: 25000000 vbv_delay: -1 Stream #0:1(und): Audio: ac3 ([0. raw Format : AVC Format/Info : Advanced Video Codec File size : 91. This is a problem common to both. sh This is a top-down approach to building the effect. 0 * output - alsa: implement channel mapping for 5. Finally Decoding the Audio Let's get to the real meat of the decoder, audio_decode_frame :. jpg -vf scale=320:240 output_320x240. Another very common operation on video files is to extract a specific portion of a given video. As for Buffer Size (VBV Buffer Size), if you want your Bitrate to be perfectly matched you'd want a value between 1/FPS*Bitrate and 8/FPS*Bitrate. The first parameter is the pointer to the 'AVFormatContext' which we will use in our program to refer to the video file. If you're looking for an output that is roughly "visually lossless" but not technically lossless use a -crf value of around 17 or 18 (you'll have to. h" #include "libavutil/time. FFmpeg CVE-2016-10190 Heap Buffer Overflow Vulnerability. So if you enter something like "android MediaExtractor" into your favorite search engine you will find the class that I am using in my code (well, the android version). m4v -ss 0 -t 593. 0 size= 7284kB time=00:03:40. My understanding is that ffmpeg will buffer frames itself in order to compute keyframes, etc, depending on the codec. , buffer gets full), ffmpeg will start to drop packets to keep up in real-time; increasing the buffer will hopefully allow your computer to process the packets before it has. By Date By Thread. -fs limit_size (output) Set the file size limit, expressed in bytes. Table of contents Overview FFmpeg SoX ALSA (libasound) PulseAudio libsndfile Other libraries Notes Overview I was playing with various media libraries recently and have prepared several snippets demonstrating how one can decode and play an audio file in two separate steps. This is a problem common to both. 3kbits/s dup=229 drop=0 [dvd @ 0x22ab720] buffer underflow i=1 bufi=1617 size=1792 Last message repeated 3 times. # File lib/ffmpeg/video_options. A WebWorker implementation that eases the use of ffmpeg library in the browser. FFmpeg在Window上出现'circular_buffer_size'问题解决方法 3260 2019-05-27 FFmpeg在进行rtsp读取时出现:[udp @ 000001e04eafbdc0] 'circular_buffer_size' option was set but it is not supported on this build (pthread support is required) 报错的解决方法. mp4 Probe buffer size limit of 5000000 bytes reached [mov,mp4,m4a,3gp,3g2,mj2 @ 0000000002c60040] After avformat_find_stream_info() pos: 5505072 bytes read:5545092 seeks:2 frames:6 Input stream #0:0 frame changed from size. This chapter covers bitrate control, and details how to encode to CBR, VBR, CRF and capped CRF with FFmpeg. I want to merge an audio and a video file into an mpeg file, and do: $ ffmpeg -i minpian. March 24, 2015 5 Comments i wa trying to do a fucking screencast with this code. 0 - NVENC Improvements, Single Graphics Context and more! buffer size can exceed the maximum upload speed or not? Xaymar Active Member. decklink_copyts. 1: added Invoke method for untypical ffmpeg usage or complicated command line arguments. Input #0, mov,mp4,m4a,3gp,3g2,mj2, from '/home/test. 0 * output - alsa: implement channel mapping for 5. 606377 too large ? FFMpeg版本在2015年1月15日后经常显示此警告。 它已被添加以警告可能的速率控制失真,否则不会造成任何危害。 real-time buffer 98% full! frame dropped?. $ ffmpeg -i input. 3kbits/s dup=460 drop=0 [dvd @ 0x22ab720] buffer underflow i=1 bufi=1652 size=1792 Last message repeated 1 times. FFmpeg is great software which is offering just a huge amount of options for image and video processing, handling of multimedia files and streams. In practice, the bitstream should have 4 byte alignment at minimum and all sample data should be 16 byte aligned unless the CPU doesn't need it (AltiVec and SSE do). avi -b 4000k -minrate 4000k -maxrate 4000k -bufsize 1835k out. rb, line 99 99: def crop_left (size) 100: FFMpegCommand << "-cropleft #{size}" 101: end crop_right (size) Set right crop band size (in pixels). To increase the buffer size for smoother playback, replace “-b 900k” with “-buffsize 3000k”. -b bitrate set video bitrate (in kbit/s) -vframes number set the number of video frames to record -r rate set frame rate (Hz value, fraction or abbreviation) -s size set frame size (WxH or abbreviation) -aspect aspect set aspect ratio (4:3, 16:9 or 1. ffmpeg reads from an arbitrary number o. 0 \ -thread_queue_size 512 -f alsa -ac 2 -i hw:0,0 \ -bsf:a aac_adtstoasc -c:a aac -ac 2 -b:a 128k \ -filter:v " hwupload_cuda,scale_npp=w=1280:h=720:interp_algo=lanczos " \ -b:v 6000k -minrate:v 6000k -maxrate:v 6000k -bufsize:v 6000k \ -c:v h264_nvenc -qp:v. Once we have the frame, we simply copy it to our audio buffer, making sure the data_size is smaller than our audio buffer. I am trying to output real time video of H. so the muxer will buffer the audio. Here's my command (I don't -map the audio I want to delete) : f. c, it uses a small “buf_size”. This function only looks at the header, so next we need to check out the stream information in the file. 28 bitrate= 270. Once it starts rejecting input, you have no choice but to read at least some output. int : buffer_size : Maximum buffer size. mkv is a Matroska container file and accepts video, audio and subtitle streams, so ffmpeg will try to select one of each type. Defined in avcodec. Defaults to '1073741824'. Ask Question Asked 3 years, Invalid argument [rawvideo @ 000000c56052c920] Invalid buffer size, packet size 362 < expected. int count AVDictionaryEntry *elems. Installation. ffmpeg的内部Video Buffer管理和传送机制. 3 -c copy part1. c file in the ffmpeg distribution. It should have a folder called ffmpeg. 2 allows remote attackers to execute arbitrary code by leveraging failure to check for RTMP packet size mismatches. You signed in with another tab or window. I can render the movie just fine into a. 根据ffmpeg官方网站上的例子程序开始学习ffmpeg和SDL编程。 SDL是一个跨平台的多媒体开发包。适用于游. m4v -ss 1144. @Jingo21 Xamarin basically exposes all the Android APIs to you as C# types. Currently we want to use 32kb to preserve existing behavior // with the previous URLProtocol based approach. Just pass the natural cut point offsets to ffmpeg, telling it to pass the encoded A/V through untouched by using the "copy" codec: $ ffmpeg -i source. Re: Thread Library Comparison (pthreads-win32, winpthreads, & w32threads) Post by mikeversteeg » Thu Jul 06, 2017 11:20 am Although I welcome experiments like these (just sorry I missed the announcement, is there a channel for this type of news?), it looks like ffmpeg is not ready for this as too much is now broken (including decklink support). 2_9,1: lwhsu : multimedia/ffmpeg: enable libass by default libass is necessary for subtitle operations, and this is an very important feature for non-English speaking areas. Another [possibly better] solution is to build the layers from the bottom up (pre-calculate the PTS delay for each layer i. If set to true, timestamps are forwarded as they are without removing the. mpeg [mpeg @ 0x84c78a0]buffer underflow i=0 bufi=824516 size=829440 [mpeg @ 0x84c78a0]buffer underflow i=0 bufi=826557 size=829440 [mpeg @ 0x84c78a0]packet too large, ignoring buffer limits to mux it [mpeg @ 0x84c78a0]buffer underflow i=0. You can check it has by opening Audacity, then going to Edit > Preferences > Libraries and click the Locate button. c: Lines: 0: 169: 0. These are the only solutions I've found: Rebuilding ffmpeg/libav changing the UDP_MAX_PKT_SIZE in the udp. I'm a big fan of the FFmpeg builds by Kyle Schwarz though recently the website was down and I had to compile FFmpeg manually. Also, as the question is about getting an ffmpeg frame to an opengl texture, I don't understand how the question got out of hand, given all the questions and answers were about uploading an ffmpeg frame to an opengl texture, no matter if it was about performance (gluBuild2DMipmaps(), glTexSubImage2D()), pixel storage (glPixelStorei() etc. hls_mp4_max_buffer_size The ngx_http_hls_module module provides HTTP Live Streaming (HLS) server-side support for MP4 and MOV media files. The file size is close to 70MB, and it comes packaged in a ZIP folder. I'm making this post to attempt to gauge interest to see if it would be worth the trouble of trying to get it added into the main branch of FFmpeg. / media / ffmpeg / ffmpeg_common. Download DLL, OCX and VXD files for windows for free. If you want to know more about ffmpeg, we've only covered a portion of it. At its core is the FFmpeg program itself, designed for command-line-based processing of video and audio files, and widely used for format transcoding, basic editing (trimming and concatenation), video scaling, video post. ffmpeg实现音频resample(重采样) 下面代码是实现将音频的三大要素:声道,样本,采样率变更的demo 例如双声道变成单声道,44100. Example command using a single-frame VBV: ffmpeg -i -r 25 -c:v libx264 -x264opts nal-hrd=cbr:force-cfr=1 -b:v 2500k -minrate 2500k -maxrate 2500k -bufsize 100k output. ffm FileMaxSize 20M Feed feed1. Heap-based buffer overflow in libavformat/rtmppkt. There are 3 components within a 1-in-1-out transcoder, namely decoder, scaler, and encoder (see Figure 6). I'm trying to decode and encode video on nvidia GTX960 card, and I've stuck with a strange problem If i'm specifying 720p resolution with -s 720x540 parameter - everything works. FFmpeg & SDL2 - play audio & video. FFmpegr helping you easily create a variety of FFmpeg commands and scripts to process your digital media. But Buffer len size is always zero form the function "vidioc_querybuf" in FFMPEG application. buffer_size=size. The following libraries are used: FFmpeg SoX ALSA (libasound. av_strlcpy is a function from ffmpeg that does some extra bounds We also have to reallocate the buffer if the size of the window. Sets the audio sample bit depth. Corresponding OBS option - Buffer size. [FFmpeg-devel] [PATCH] lavf/movenc: Use a dynamic buffer when writing the mfra box Derek Buitenhuis Tue, 23 Jun 2020 08:46:03 -0700 When doing streamed output, with e. > > I searched for buffer underflow and see several discussions but > none that help me. m4v -ss 1144. [关键词:ffmpeg,avutil,avbuffer, 引用计数] 0 引言. 2 has a "Conditional jump or move depends on uninitialised value" issue in h2645_parse because alloc_rbsp_buffer in libavcodec/h2645_parse. However, for RTSP urls this is not supported. c the call to ff_dnn_load_model_native could cause a heap buffer overflow caused by a missing check of the variable operand_index while accessing network->operands and setting the name. I'm trying to stream h264 video from my Logitech C920 webcam. AVBuffer是ffmpeg提供的基于引用计数的智能指针的一个实现版本。 FFmpeg中很多结构体是基于AVBuffer实现的,比如AVFrame、AVPacket。 AVBuffer实现. enum {kBufferSize = 32 * 1024}; static int AVIOReadOperation (void * opaque, uint8_t * buf, int. 265 with ffmpeg or with pcm audio. Though there are no errors in the. 0 size= 7284kB time=00:03:40. will this make very video buffer size as 14000 or is that the maximum buffer size? Moreover, the maxrate defines the max rate at which the buffer is filled, is that the same thing as the max bitrate? I am using profile main and level 3. I'm trying to use qsv from ffmpeg with an example i found if ffmpeg src, but it isnt work for me, could you suggest me another one example or say what i do wrong? When i used this example i had an output:. -cropbottom size. 5 * logical processors, rounded down. There are 3 components within a 1-in-1-out transcoder, namely decoder, scaler, and encoder (see Figure 6). 000000, bitrate: 1591842 kb/s Stream #0:0: Video: r210 (r210 / 0x30313272), rgb48le(10 bpc), 1920x1080, 23. I took a look into other languages to see if C# was the odd one here, it seems few offer 16 bytes guarantees for their arrays. 3 月,跳不动了?>>> FFMPEG 版本3. hls_mp4_max_buffer_size The ngx_http_hls_module module provides HTTP Live Streaming (HLS) server-side support for MP4 and MOV media files. [mpeg @ 00000000055fe720] buffer underflow st=1 bufi=37828 size=66833 [mpeg @ 00000000055fe720] buffer underflow st=1 bufi=39865 size=66833 [mpeg @ 00000000055fe720] packet too large, ignoring buffer limits to mux it [mpeg @ 00000000055fe720] buffer underflow st=1 bufi=39865 size=66833 [mpeg @ 00000000055fe720] buffer underflow st=1 bufi=41902 size=66833 [mpeg @ 00000000055fe720] packet too. The file size is close to 70MB, and it comes packaged in a ZIP folder. A value of 0 specify not to draw the pointer. Warning: VBV buffer size not set Hi, with: ffmpeg -i "concat:CYD-001. New buffer size 16 (4 decode and 12 process) 2017-12-21 21:09:32. For video, it will select stream 0 from B. Files for ffmpeg-python, version 0. c it is called cook_decode_init. end_frame() Calls the next filter's end_frame() callback. -bufsize sets the buffer size, and can be 1-2 seconds for most gaming screencasts, and up to 5 seconds for more static content. If you use -maxrate 960k then use a -bufsize of 960k-1920k. If you're "trying to allocate an array 64 bytes in size", you may consider uint8_t Buffer[64]; instead of uint8_t *Buffer[64]; (the latter is an array of 64 pointers to byte) After doing this, you will have no need in malloc as your structure with a 64 bytes array inside is. FFmpeg+SDL2实现视频流播放. buffer_size=size. I am recording from a STB and converting the. A WebWorker implementation that eases the use of ffmpeg library in the browser. Re: Thread Library Comparison (pthreads-win32, winpthreads, & w32threads) Post by mikeversteeg » Thu Jul 06, 2017 11:20 am Although I welcome experiments like these (just sorry I missed the announcement, is there a channel for this type of news?), it looks like ffmpeg is not ready for this as too much is now broken (including decklink support). No, that's a really good call out. When I run ffmpeg -i /dev/video0, I have this error: [video4linux2,v4l2 @ 0x55890] No. avi file (the commented out lines in the following code. c it is called cook_decode_init. size and duration of those videos: size is less than 5MB ; duration is less than 5 second; I am using this library: Bravobit FFMPEG. 解析PES参考13818-1。 handle_packets static int handle_packets(MpegTSContext *ts, int64_t nb_packets) { AVFormatContext *s = ts->stream; uint8_t packet[TS_PACKET. mp3 ffmpeg -i input. sounds like maybe you're not setting some timestamps up right? Anyway I have no idea/expertise in this area, all I can point you to is this https://trac. I have a MPG file (mpeg2) with two audio streams. If you're looking for an output that is roughly "visually lossless" but not technically lossless use a -crf value of around 17 or 18 (you'll have to. fifo_size=units Set the UDP receiving circular buffer size, expressed as a number of packets with size of 188 bytes. avi': Metadata: TCOD : 0 Duration: 00:07:04. It’s about 500 MB in size which. Paul Gevers (paul-climbing) wrote on 2009-01-24: Re: [Bug 288823] Re: Possible buffer underflow caused by integer overflow in the image conversion routines #2 Kees Cook wrote:. The libavformat and libavcodec libraries that come with ffmpeg are a great way of accessing a large variety of video file formats. The source code is available on GitHub here and there. hello all, what does this message mean?: real-time buffer 155% full! frame dropped! , I am getting them alot this is my command: -f dshow -i video="screen-capture-recorder":audio="Realtek HD Audio Input" -vcodec libx264 -preset ultrafast -tune film -r 10 -async 1 -ab 16k -ar 11025 -f mpegts udp://172. Set RTSP/UDP buffer size in FFmpeg/LibAV Question: Tag: ffmpeg,udp,rtsp,buffer-overflow,libav. Defaults to ‘16’. ts-files with ProjectX to. See also @var{fifo_size}. The fifo_size and overrun_nonfatal options are related to this buffer. mpg , but get the following: [] [dvd @ 0x8311670]buffer underflow i=1 bufi=4026 size=4096te= 344. There are two main function - parse and split. Restarted ZM Now when it was being stressed I could not get it to smear on Monitor-1, but Monitor-3 was breaking up all over the place still. Fix a file descriptor leak in the MAD backend. avi is just a container. will this make very video buffer size as 14000 or is that the maximum buffer size? Moreover, the maxrate defines the max rate at which the buffer is filled, is that the same thing as the max bitrate? I am using profile main and level 3. 解析PES参考13818-1。 handle_packets static int handle_packets(MpegTSContext *ts, int64_t nb_packets) { AVFormatContext *s = ts->stream; uint8_t packet[TS_PACKET. [FFmpeg-devel] [PATCH] lavf/movenc: Use a dynamic buffer when writing the mfra box Derek Buitenhuis Tue, 23 Jun 2020 08:46:03 -0700 When doing streamed output, with e. As for Buffer Size (VBV Buffer Size), if you want your Bitrate to be perfectly matched you'd want a value between 1/FPS*Bitrate and 8/FPS*Bitrate. In dnn_backend_native. You can also decrease latency by tuning any broadcast server you are using to minimize latency, and finally by tuning the client that. ts” It says “Circular buffer overrun. Now the video is playing. FFmpeg knows about duplicate frames in the input video stream as it outputs a message like this: More than 1000 frames duplicated Is there some way to tell it: "Not include duplicates into the. Table of contents Overview FFmpeg SoX ALSA (libasound) PulseAudio libsndfile Other libraries Notes Overview I was playing with various media libraries recently and have prepared several snippets demonstrating how one can decode and play an audio file in two separate steps. [udp @ 0x7fbbba40a0c0] end receive buffer size reported is 65536 [udp @ 0x7fbbba403180] No default whitelist set [udp @ 0x7fbbba403180] end receive buffer size reported is 65536 [rtsp @ 0x7fbbbb00ba00] setting jitter buffer size to 500. However after decoding the audio data most of the time I just hear noise, below my code: void MainWindow::try_with_ffmpeg() { av_register_all(); int audioStream = -1; AVCodecContext *codecContext; AVCodec *codec;. I am using FFMpeg to scale, pad and merge 2 videos and generate one mp4 file. m4v -ss 1144. Toggle navigation Patchwork FFmpeg Patches Bundles About this project 112 patches lavc/hevc_mp4toannexb_bsf: warn if a NAL size would overflow the buffer - - - ----2018-08-23: Rodger Combs: New. 06 PSNR value for the file encoded with the 16. Ubuntu started shipping the libav fork instead of FFmpeg in recent releases. 626632 I AFD: Stream #0. 0 * output - alsa: implement channel mapping for 5. FFmpeg录制和发布UDP/TCP流 1、TCP与UDP参数说明 2、TCP监听接收流 执行完命令后,FFmpeg会进入端口监听模式,等待客户端连接到本地的1234端口。. How to Install FFMPEG on CentOS 7 June 28, 2016 Updated June 27, 2016 By Saheetha Shameer LINUX HOWTO FFMPEG is a major multimedia framework, able to decode, encode, transcode, mux, demux, stream, filter and play various audio and video files in different formats. ffmpeg | branch: master | James Almer | Tue Jun 9 18:35:00 2020 -0300| [93016f5d1d280f9cb7856883af287fa66affc04c] | committer: James Almer. The given buffer size was 7928 and the required size was 28808. 'buffer_size' specifies size in bytes while. There are three output files specified, and for the first two, no -map options are set, so ffmpeg will select streams for these two files automatically. /ffmpeg -y -i football_1080p. added simple image watermarking example with FFMpeg filter graph (DemoWebForms) 2014 Aug 04: v. One hacky way to acheive the same would be to call ffmpeg using…. My understanding is that ffmpeg will buffer frames itself in order to compute keyframes, etc, depending on the codec. So add support for avcodec_decode_audio3. org i encounter the same problem. 0 size= 1665kB time=00:00:01. Viewed 536 times 0. This is used to set either the receive or send buffer size, depending on what the socket is used for. Also, even after achieving this, further knowledge of FFmpeg would be required to exploit the buffer overrun happening later in avcodec_decode_video2. Piping Images. I’ve been doing a bit of development with FFmpeg to try and add a device for decoding the Looking Glass framebuffer. srt files Then I have used ffmpeg to merge video & sound and after that used spumux to get the subtitles. Set a larger buffer for the audio-f gdigrab -framerate 60 -video_size 1920x1080 -i desktop -f dshow -rtbufsize 15M -i audio=""virtual-audio-capturer"" -vcodec libx264 -preset ultrafast -tune zerolatency -pix_fmt yuv422p -f mpegts udp://{IpAddress}:1234. cpb: bitrate max/min/avg: 0/0/200000 buffer size: 0 vbv_delay: -1 [image2 @ 0000021b1d388980] Could not get frame filename number 2 from pattern 'test. 1 of the License, or (at your option) any later version. ffmpeg提供了实现广义重采样的方式,通过libswresample库实现,可以通过具体实现代码如下: } else { int size = av_samples_get_buffer. aspect 16:9: Widescreen. I am going to downgrade my lame version, recompile ffmpeg, and cross my fingers. 2 allows remote attackers to execute arbitrary code by leveraging failure to check chunk size. mp4 -vcodec copy -acodec copy -map 0:1 -map 1:0 output. Parser declarations will look like this:. In the companion object we have a list of shared libraries to import with System. webm Codec support ffmpeg -codecs will tell you if you can decode from one codec and encode into another. 9kbits/s [dvd @ 0x8311670]packet. 3 changelog diracdec: prevent overflow in data_unit_size check ffmpeg: remove incorrect network deinit avformat/avidec: add mp2 to the list of exceptions… n2. [udp @ 0x2b5dfc0] Circular buffer overrun. The second parameter is the name of the file to be opened. If you use -maxrate 960k then use a -bufsize of 960k-1920k. 这里定义了一个avio_ctx_buffer_size 变量表示每次从文件中读取到少数据到内存。在该例子中,FFMPEG是先把输入的音视频数据全部读取到内存,而并不是需要使用的时候才去读取。. Warning: VBV buffer size not set Hi, with: ffmpeg -i "concat:CYD-001. FFmpegr helping you easily create a variety of FFmpeg commands and scripts to process your digital media. Setting this value too low can degrade performance. So if you enter something like "android MediaExtractor" into your favorite search engine you will find the class that I am using in my code (well, the android version). Search ""buffer_size"" (7 hits in 5 files) D:\Download\ffmpeg\ffmpeg-3. 23 (2020/04/23) * protocol - add tag fallback for AlbumSort * storage - curl: fix corrupt "href" values in the presence of XML entities - curl: unescape "href" values * input - nfs: fix crash bug - nfs: fix freeze bug on reconnect * decoder - gme: adapt to API change in the upcoming version 0. Toggle navigation Patchwork FFmpeg Patches Bundles About this project 112 patches lavc/hevc_mp4toannexb_bsf: warn if a NAL size would overflow the buffer - - - ----2018-08-23: Rodger Combs: New. m2v It is of little use elsewise. Table of contents Overview FFmpeg SoX ALSA (libasound) PulseAudio libsndfile Other libraries Notes Overview I was playing with various media libraries recently and have prepared several snippets demonstrating how one can decode and play an audio file in two separate steps. FFMpeg is a great tool for doing all kinds of stuff with media. Please help me. By Date By Thread. +dash, if the mfra box ended up being larger than the AVIOContext write buffer, the (unchecked) seeking back to update the box size would silently fail and produce an invalid. #define AVCODEC_MAX_AUDIO_FRAME_SIZE 192000 // 1 second of 48khz 32bit audio. c, it uses a small “buf_size”. Increasing the buffer size increases data rate variance. avi -fs 100M out. this could cause a read buffer overflow and may use as a primitive to leak addresses or sensitive memory. I use atm 2500 on stream pc, about 7000 i think on gamepc, for 1080p u can stream at 20-25000, go less for 720, 10-15000. It returns "0x0->0x0 is invalid scaling dimensions". FFmpeg LibAVCodec Heap Buffer Overflow Vulnerability 2006. ffmpeg提供了实现广义重采样的方式,通过libswresample库实现,可以通过具体实现代码如下: } else { int size = av_samples_get_buffer. ffmpeg: Either both buffer size and max rate or neither must be specified #1374. size and duration of those videos: size is less than 5MB ; duration is less than 5 second; I am using this library: Bravobit FFMPEG. I’m making this post to attempt to gauge interest to see if it would be worth the trouble of trying to get it added into the main branch of FFmpeg. h b/libavdevice/KVMFR. In other news, I recently moved to work on the Chromium project / Google Chrome, which I'm very excited about. To encode it, it makes use of the video codec which was coupled with avctx using avcodec_open(). h" #include "libavutil/opt. c the call to ff_dnn_load_model_native could cause a heap buffer overflow caused by a missing check of the variable operand_index while accessing network->operands and setting the name. ffm FileMaxSize 20M Feed feed1. +dash, if the mfra box ended up being larger than the AVIOContext write buffer, the (unchecked) seeking back to update the box size would silently fail and produce an invalid. vob I get the warning: [svcd @ 0x56377151e140] VBV buffer size not set, using default size of 130KB If you want the mpeg file to be compliant to some specification Like DVD, VCD or others, make sure you set the correct buffer size How can I aviod the warning?. [关键词:ffmpeg,avutil,avbuffer, 引用计数] 0 引言. Ussually the final size and video bitrate depends mainly on the video output size. * @param buf_size The size of the buffer buff. Finally Decoding the Audio Let's get to the real meat of the decoder, audio_decode_frame :. Finally, make sure you're using the best settings for you. Process class. Re-encode with ffmpeg using libx265 - rawvideo. I am using a Qnap TS-873 with a built in Nvidia GTX 1050TI to convert TONS of video Files to hevc/h264 depending on what is best for the situation. h" #include "libavutil/opt. CVE-2011-3934 Double free vulnerability in the vp3_update_thread_context function in libavcodec/vp3. I'm a big fan of the FFmpeg builds by Kyle Schwarz though recently the website was down and I had to compile FFmpeg manually. ts-files with ProjectX to. Synopsis 2. The file size is close to 70MB, and it comes packaged in a ZIP folder. Sets the audio sample bit depth. c Synching Audio. [关键词:ffmpeg,avutil,avbuffer, 引用计数] 0 引言. ffmpeg-formats - FFmpeg formats Set probing size in bytes, i. Can you also attach your full compilation log for more info? When I previously tested with the latest FFmpeg, I remember seeing some warnings about API deprecations/changes but it didn't result in blocking errors. net 其中关键是ffmpeg在AVIOContext结构体的初始化函数avio_alloc_context中提供了一个回调函数 read_packet, 参看源代码如下:. Due to incorrect use of strtoll function and integer sizes (chunk_size in int64_t)[2], it was possible to pass negative chunk_size in chunk encoding, so after computing final size using FFMIN function later on it would be passed as argument to avio_read function. The output of this command will change depending on the version of FFmpeg you have. [FFmpeg-devel] [PATCH v2] lavf/movenc: Use a dynamic buffer when writing the mfra box Derek Buitenhuis Fri, 26 Jun 2020 06:05:34 -0700 When doing streamed output, with e. Otherwise the received message may be truncated causing decoding errors. Must be ‘16’ or ‘32’. Restarted ZM Now when it was being stressed I could not get it to smear on Monitor-1, but Monitor-3 was breaking up all over the place still. avi is just a container. FFmpeg libav tutorial - learn how media works from basic to transmuxing, transcoding and more. -b bitrate set video bitrate (in kbit/s) -vframes number set the number of video frames to record -r rate set frame rate (Hz value, fraction or abbreviation) -s size set frame size (WxH or abbreviation) -aspect aspect set aspect ratio (4:3, 16:9 or 1. What i am trying to do is, convert a png pic in to a mpeg Video file. Reload to refresh your session. 9kbits/s [dvd @ 0x8311670]packet. 0 size=102662938kB time=38:52:19. ffmpeg is ussually smart enough to choose maxrate and bitrate if you tell it to keep the same video quality. snd_loopin { type hw card 2 device 1 channels 2 } pcm. Join GitHub today. Resolution of target video. Dump FFmpeg output on timeout. The following libraries are used: FFmpeg SoX ALSA (libasound. If it doesn't, create it, then download this zip file and extract it to the ffmpeg folder. class DroneVision: def __init__ (self, drone_object, model, buffer_size = 200, cleanup_old_images = True): """ Setup your vision object and initialize your buffers. avi -fs 100M out. There are three output files specified, and for the first two, no -map options are set, so ffmpeg will select streams for these two files automatically. Several chained filters form a filter graph. The avcodec_encode_subtitle() function encodes a video frame from the input sub. FFmpeg配信は、まだまだ検証中の段階です。 ・-rtbufsize 100000000:real-time buffer sizeの指定。real-time buffer 100% full! frame dropped!のようなエラーの改善に効果があったので指定. The actual implementation resides in the C part. Here'S my code:. I want to use ideally either ffmpeg or mencoder (or something else, but those two I know I have working) to convert any incoming video to a fixed screen size. mp4 -itsoffset 0. Default is 32 KB for output, 384 KB for input. Fixed RAM buffer bug which sometimes caused crashes when quality sorting frames. So in order to actually get Variable Bitrate behaviour, FFMPEG would need to be configured to use VBR mode. audio_depth. Resolution of target video. ffmpeg -rtbufsize 1500M -f dshow -r 30. @Properties(inherit=avutil. If you're "trying to allocate an array 64 bytes in size", you may consider uint8_t Buffer[64]; instead of uint8_t *Buffer[64]; (the latter is an array of 64 pointers to byte) After doing this, you will have no need in malloc as your structure with a 64 bytes array inside is. That is, the difference between 36. Compiling with libvpx support number of bits which should be loaded into the rc buffer before decoding starts-bufsize: ratecontrol buffer size (in bits. / media / ffmpeg / ffmpeg_common. When encoding H. -to and -t are mutually exclusive and -t has priority. Also, as the question is about getting an ffmpeg frame to an opengl texture, I don't understand how the question got out of hand, given all the questions and answers were about uploading an ffmpeg frame to an opengl texture, no matter if it was about performance (gluBuild2DMipmaps(), glTexSubImage2D()), pixel storage (glPixelStorei() etc. 6: 24 Apr 2014 Bug Fixes: Fixed RAM buffer bug when colour frames are processed with quality weighting. How to Install FFmpeg on Windows. By martos, July 12, 2018. mpg Grab at position "10,20": ffmpeg -f x11grab -framerate 25 -video_size cif -i :0. FFMpeg is a great tool for doing all kinds of stuff with media. avi -s 2592 x2160 -b 1200 output. mp4" Hybrid using ffmpeg deinterlacer option: Hybrid using Yadifmod: Hybrid using QTGMC with no smoothing (worst result): Hybrid using QTGMC with smoothing set to 1:. In case threading is enabled on the system, a circular buffer is used to store the incoming data, which allows one to reduce loss of data due to UDP socket buffer overruns. Compressing video files. Also, there is a faint white border displayed for few seconds on the black frame that I am creating. I have not tried the buffer size change suggested in the first link as I've read elsewhere that it didn't help. If you installed the ffmpeg package, then you actually installed the libav-tools package and a program that told you to use avconv instead of ffmpeg in the future, giving the impression that ffmpeg is deprecated, which it is not. The given buffer size was 31168 and the required size was 35432. The videos will be converted using ffmpeg and images will be compressed to 92 25000000/0/0 buffer size: 25000000 vbv_delay: -1 Stream #0:1(und): Audio: ac3 ([0. Input buffer exhausted before END element found when i try to add watermark to video size and duration of those videos: ffmpeg -i /storage/emulated/0/EZ. If the buffering reaches this value, incoming frames will be dropped. 这里定义了一个avio_ctx_buffer_size 变量表示每次从文件中读取到少数据到内存。在该例子中,FFMPEG是先把输入的音视频数据全部读取到内存,而并不是需要使用的时候才去读取。. 音频编解码 ffmpeg 编解码 音频编码 视频音频编解码 音频解码 ffmpeg视频编码 aac编码 音频编解码和混音 AAC ADTS 解码 aac解码 FFMPEG/音视频编解码 音视频编解码 / ffmpeg 音频解码 音频编解码 音频编解码 音频编解码 音频编解码 音频编解码 音频编解码 音频编解码. 71 bitrate=1712. 主要实现文件位于libavutil中的buffer. Toggle navigation Patchwork FFmpeg Patches Bundles About this project 112 patches lavc/hevc_mp4toannexb_bsf: warn if a NAL size would overflow the buffer - - - ----2018-08-23: Rodger Combs: New. It supports many formats, codecs and filters for various tasks. Restarted ZM Now when it was being stressed I could not get it to smear on Monitor-1, but Monitor-3 was breaking up all over the place still. 1 OS : CentOS7. OpenCV - Originally developed by Intel 's research center, as for me, it is the greatest leap within computer vision and media data analysis. +dash, if the mfra box ended up being larger than the AVIOContext write buffer, the (unchecked) seeking back to update the box size would silently fail and produce an. * Buffer type (size, hints) must be the same. mp4 -c:v libsvt_hevc -rc 1 -tune 1 - preset 1 -b:v 4M -maxrate 4M -bufsize 8M -c:a aac -b:a 128k -ac 2 - ar 48000 football_SVT_HEVC_4M_p1. The same works with images as well: ffmpeg -i input. Quiet temperament type n (0. A notable addition to this release is the support for NVENC — the Nvidia Video Encoder interface for H. mp4 -itsoffset 0. It is managed by the C part. bufsize 2000k. The last three arguments are used to specify the file format, buffer size, and format options, but by setting this to NULL or 0, libavformat will auto-detect these. See also fifo_size. class DroneVision: def __init__ (self, drone_object, model, buffer_size = 200, cleanup_old_images = True): """ Setup your vision object and initialize your buffers. int : buffer_size : Maximum buffer size. And that was made to comply with DVD Video specification (see the ffmpeg source comment for how 224 KiB converts to the Mb/s per the spec. The given buffer size was 7928 and the required size was 28808. The source code is available on GitHub here and there. 11 * 12 * FFmpeg is distributed in the hope that. Read more FFmpeg 2. If you installed the ffmpeg package, then you actually installed the libav-tools package and a program that told you to use avconv instead of ffmpeg in the future, giving the impression that ffmpeg is deprecated, which it is not. The size of audio_buf is 1. Defaults to ‘1073741824’. jpg -vf scale=320:240 output_320x240. buffer uderflow while joining vob files - Forum dedicated to FFmpeg; a free / open source multimedia software project that produces libraries and programs to record, convert and stream audio and video. In dnn_backend_native. [FFmpeg-devel,3/3] avcodec/packet: change public function and struct size parameter types to size_t [FFmpeg-devel,1/3] avutil/buffer: change public function and struct size parameter types to size_t. I can see under linux /dev/video0 and /dev/media0 nodes. This trick will help you to scale your video files to smaller display devices such as tablets and mobiles. 6: 24 Apr 2014 Bug Fixes: Fixed RAM buffer bug when colour frames are processed with quality weighting. This wikiHow teaches you how to install FFmpeg onto your Windows 10 computer. ffmpeg -f x11grab -framerate 25 -video_size cif -i :0. > -rtbufsize 2147. There are two main function - parse and split. Buffer underflow, delay and many interruptions - Forum dedicated to FFmpeg; a free / open source multimedia software project that produces libraries and programs to record, convert and stream audio and video. > > Thanks, > Mike > > $ ffmpeg -r 29. AVABufferSinkParams: Struct to use for initializing an abuffersink context. Surviving due to overrun_nonfatal option Last message repeated 54 times [mpegts @ 0x2b5d800] PES packet size mismatch frame=3174367 fps= 23 q=26. 7' FFmpeg command I am trying for adding watermark:. I am going to downgrade my lame version, recompile ffmpeg, and cross my fingers. dual { type asym. m2v It is of little use elsewise. mov -pix_fmt yuv420p -vcodec libx264 -crf 24 -an D:\outvid. vob|" -c copy CYD_copy. It can use either variable length coding or arithmetic coding for entropy coding. -vcodec codec Force video codec to codec. Another [possibly better] solution is to build the layers from the bottom up (pre-calculate the PTS delay for each layer i. Contribute to FFmpeg/FFmpeg development by creating an account on GitHub. I've been doing a bit of development with FFmpeg to try and add a device for decoding the Looking Glass framebuffer. FFmpeg may adjust // how big each channel data is in order to meet the alignment policy, so // we need to take this into consideration. Currently we want to use 32kb to preserve existing behavior // with the previous URLProtocol based approach. 2 allows remote attackers to execute arbitrary code by leveraging failure to check for RTMP packet size mismatches. 5 (output also below), I don't get any buffer. m4v -ss 593. In LibAV/FFMPEG it's possible to set the udp buffer size for udp urls (udp://) by appending some options (buffer_size) to it. I am trying to output real time video of H. If you installed the ffmpeg package, then you actually installed the libav-tools package and a program that told you to use avconv instead of ffmpeg in the future, giving the impression that ffmpeg is deprecated, which it is not. buffer_size=size Set the UDP maximum socket buffer size in bytes. I built ffmpeg from git and now I have h264_vaapi listed in ffmpeg. I am using the following command which leads to an output file with no audio for few seconds in the middle of the second video. I want to merge an audio and a video file into an mpeg file, and do: $ ffmpeg -i minpian. c mishandles rbsp_buffer. c it is called cook_decode_init. I found that Ffmpeg is free and open source which can do exactly it. Reported by: Peter Bennett: Owned by: Buffer size: 32768 streamed 0 seekable 1 2017-12-21 21:09:30. Fix a hang when FFmpeg fills up its stderr output buffer. avi file (the commented out lines in the following code. mingw-w64-i686-ffmpeg Complete and free Internet live audio and video broadcasting solution (mingw-w64). I'm using such ffserver. 5 Fix crash when FFmpeg fails to report a duration. ffmpeg-i input. If you exceed the packet buffer size (i. ffmpeg 从内存中读取数据(或将数据输出到内存) blog. That is, the difference between 36. Defaults to ‘16’. sounds like maybe you're not setting some timestamps up right? Anyway I have no idea/expertise in this area, all I can point you to is this https://trac. will this make very video buffer size as 14000 or is that the maximum buffer size? Moreover, the maxrate defines the max rate at which the buffer is filled, is that the same thing as the max bitrate? I am using profile main and level 3. Search ""buffer_size"" (7 hits in 5 files) D:\Download\ffmpeg\ffmpeg-3. Update (July 21 2004): There’s a new prerelease of ffmpeg (0. ffmpeg -i clip. Download FFmpeg builds for Windows or macOS, available as LGPL or GPL. mp4 -vf scale=1280:-1 -c:v libx264 -preset veryslow -crf 24 output. But Buffer len size is always zero form the function "vidioc_querybuf" in FFMPEG application. avi -b 4000k -minrate 4000k -maxrate 4000k -bufsize 1835k out. 2 FFmpeg FFmpeg 3. 7 Subtitle options: 3. J'ai un petit (gros ?) soucis avec ffmpeg sous windows. Question: Tag: c++,c,ffmpeg I'm currently having issues trying to encapsulate raw H264 nal packets into a mp4 container. play audio using ffmpeg by giving the audio path. exe -fflags +genpts -i "input. Therefore, for __N__ FFmpeg instances, we will have N decoders, N scalers, and N encoders altogether. 2 Main options 3. I just want to remove one of the audio stream without re-encode or quality loss. If I use ffmpeg 2. 100 Input #0, avi, from 'E:\scratch\Newyear\00000000. bitrate=bitrate. using the scale filter will do it, but there is a bit more to it. I am using the following command which leads to an output file with no audio for few seconds in the middle of the second video. The size of audio_buf is 1. However after decoding the audio data most of the time I just hear noise, below my code: void MainWindow::try_with_ffmpeg() { av_register_all(); int audioStream = -1; AVCodecContext *codecContext; AVCodec *codec;. Download FFmpeg builds for Windows or macOS, available as LGPL or GPL. @Jingo21 Xamarin basically exposes all the Android APIs to you as C# types. [关键词:ffmpeg,avutil,avbuffer, 引用计数] 0 引言. I've already managed to take informatin from the Picture, but somehow i cannot convert the Picture in YUV Format. 33 bitrate=1721. Disclaimer: Duplicate of SO question marked as answered but actually didn't give a proper solution. avi vids use older style codecs (eg XviD) which are fine, but are larger for the same quality when compared to the later generation of codecs. ) On the receiving machine you should be able to use vlc, ffmpeg or mplayer to catch the stream. mp4 -an -s 176x144 -vcodec rawvideo -f rtp rtp://127. ts where: nal-hrd=cbr set the hypothetical reference decoder (HRD) to CBR and pack the bitstream to the specified bitrate force-cfr=1 force constant framerate timestamp generation -b:v the video bitrate -minrate -maxrate same…. The last three parameters are for file format, buffer size, and format options. I'm a big fan of the FFmpeg builds by Kyle Schwarz though recently the website was down and I had to compile FFmpeg manually. void * av_fast_realloc(void *ptr, unsigned int *size, size_t min_size) Reallocate the given buffer if it is not large enough, otherwise do nothing. -bufsize sets the buffer size, and can be 1-2 seconds for most gaming screencasts, and up to 5 seconds for more static content. vob|" -c copy CYD_copy. mp4 -i videoplayback. Must be ‘16’ or ‘32’. max buffer size (-maxrate) (k) buffer size (-bufsize) (k) FFmpeg is a command line based software for handling media,. Signed-off-by: Luca Barbato < [email protected] >. c it is called cook_decode_init. 23 bitrate= 2315. By setting "thread_queue_size" to a higher value, you are increasing the buffer size for packets which are waiting to be encoded. 737257 N Player(0): Waited 102ms for video buffers AAAAAAAAAAALLLLL 2017-12-21 21:09:32. Make FFmpeg timeout more robust. FFmpeg is a free and open-source project consisting of a vast software suite of libraries and programs for handling video, audio, and other multimedia files and streams. x releases and (at the time of writing) with FFmpeg git. 0 RTSPPort 5004 RTSPBindAddress 0. -bufsize size Set video buffer verifier buffer size (in bits). Ask Question Asked 6 months ago. Ask Question Asked 10 months ago. mingw-w64-i686-ffmpeg Complete and free Internet live audio and video broadcasting solution (mingw-w64). C and C++ appear to give 16 bytes in 64 bits, but only 8 for 32 bits programs. 3 -c copy part1. audio_depth. // TODO(dalecurtis): Experiment with this buffer size and measure impact on // performance. 0/100%) (size of 100% equals device buffer size) -R msec Pseudo reveb effect (set every instrument's release to msec) if n=0, n is set to 800 -S n --cache-size=n Cache size (0 means no cache) -s freq --sampling-freq=freq Set sampling frequency to freq (Hz or kHz) -T n --adjust-tempo=n Adjust tempo to n%, 120=play MOD. ac3 -target > ntsc-vcd -acodec copy -vcodec mpeg2video 00000-t. m4v $ ffmpeg -i source. class DroneVision: def __init__ (self, drone_object, model, buffer_size = 200, cleanup_old_images = True): """ Setup your vision object and initialize your buffers. The size of the buffer passed in is data DWORD 0 and the size returned is data DWORD 1. decklink_copyts. buffer underflow i=1 bufi=1617 size=1792B time=00:00:38. * Buffer type (size, hints) must be the same. RTSP连接不上导致卡死的问题 原生的ffmpeg参数在打开RTSP流时,若连接不上,会出现卡死在打开函数的情况,在有些情况下这是很不好的,可以通过设置超时来改变卡死的情况. change it using your path (D:\3dfmv\WorldDEM. Must be ‘16’ or ‘32’. hls_mp4_max_buffer_size The ngx_http_hls_module module provides HTTP Live Streaming (HLS) server-side support for MP4 and MOV media files. The second parameter is the name of the file to be opened. parse is used to reconstruct precisely one frame from raw packets, split is used for extracting extradata from the same stream. If you add "xamarin" to the search-term, you will most likely find the documentation of the class I used in the code. ffmpeg -i myfile. If you're "trying to allocate an array 64 bytes in size", you may consider uint8_t Buffer[64]; instead of uint8_t *Buffer[64]; (the latter is an array of 64 pointers to byte) After doing this, you will have no need in malloc as your structure with a 64 bytes array inside is. , or createBufferedInputStream when also a magic option buffer is set to true. Replace deprecated ffmpeg functions. [vob @ 00000000054d66c0] buffer underflow st=1 bufi=1112 size=1792 [NULL @ 0000000000338a20] start time for stream 0 is not set in estimate_timings _from_pts Last message repeated 1 times [vob @ 00000000054d66c0] buffer underflow st=1 bufi=478 size=1792 [NULL @ 0000000000338a20] start time for stream 0 is not set in estimate_timings _from_pts. 9 Advanced options 3. Universal Media Server | Forum. 根据ffmpeg官方网站上的例子程序开始学习ffmpeg和SDL编程。 SDL是一个跨平台的多媒体开发包。适用于游. FFmpeg libav tutorial - learn how media works from basic to transmuxing, transcoding and more. c Synching Audio. mp4 html5_ogg: ffmpeg -i //infile// -f ogg -vcodec libtheora -b 800k -g 300 -acodec libvorbis -ab 128k outfile. mp4 -an -s 176x144 -vcodec rawvideo -f rtp rtp://127. But when using this structure in read_header() of libavcodec/ffv1dec. 4\libavdevice\pulse_audio_enc. For example both Rust and Go are only providing a type-size alignment guarantee for their arrays. multimedia/ffmpeg: drop optional dependency on expired lang/beignet: 11 Mar 2020 08:06:52 4. I am using a Qnap TS-873 with a built in Nvidia GTX 1050TI to convert TONS of video Files to hevc/h264 depending on what is best for the situation. Other hand-wavy things; for example, the audio buffer in our struct should be declared aligned. 5 Audio Options 3. mov will create a movie with the required pixel dimensions, but if you look at the output you'll find that it adds information into the metadata so that it will play back at the same aspect ratio as the original, by using non-square pixels. 98 tbn, [mpeg @ 00000000024d88e0] VBV buffer size not set, muxing may fail Output #0, mpeg, to 'E:\scratch\Newyear. the size of the data to analyze to get stream information. GitHub is home to over 50 million developers working together to host and review code, manage projects, and build software together. FFMpeg Install On CentOS 7 FFmpeg is a video editing software that can be used to convert audio and video streams in linux. The format is wxh (ffserver default = 160x128, ffmpeg default = same as source). Doubled buffer size wherever possible on HEVC encodes. 8 x86_64: Linux linux2 2. I am going to downgrade my lame version, recompile ffmpeg, and cross my fingers. 0 - NVENC Improvements, Single Graphics Context and more! buffer size can exceed the maximum upload speed or not? Xaymar Active Member. I built ffmpeg from git and now I have h264_vaapi listed in ffmpeg. This release brings you some new codecs and formats, a lot of fixes, and many cleanups. These are the only solutions I've found: Rebuilding ffmpeg/libav changing the UDP_MAX_PKT_SIZE in the udp. to refresh your session. avi vids use older style codecs (eg XviD) which are fine, but are larger for the same quality when compared to the later generation of codecs. These are the only solutions I've found: Rebuilding ffmpeg/libav changing the UDP_MAX_PKT_SIZE in the udp. Virtualdub FFMpeg Input Plugin Input plugin for virtualdub, uses FFMpeg to load many formats Brought to you by: Update ffdlls to 3. The videos will be converted using ffmpeg and images will be compressed to 92 25000000/0/0 buffer size: 25000000 vbv_delay: -1 Stream #0:1(und): Audio: ac3 ([0. In LibAV/FFMPEG it's possible to set the udp buffer size for udp urls (udp://) by appending some options (buffer_size) to it. Xaymar updated FFmpeg Encoders for OBS Studio with a new update entry: 0. 8 x86_64: Linux linux2 2. play audio using ffmpeg by giving the audio path. Surviving due to overrun_nonfatal option Last message repeated 54 times [mpegts @ 0x2b5d800] PES packet size mismatch frame=3174367 fps= 23 q=26. 这里定义了一个avio_ctx_buffer_size 变量表示每次从文件中读取到少数据到内存。在该例子中,FFMPEG是先把输入的音视频数据全部读取到内存,而并不是需要使用的时候才去读取。. A reference to this buffer is stored in the outpic member of the link hooked to the filter's output. void * opaque : A private pointer, passed to the read/write/seek/. As shown in Figure 3, encoding with a small buffer size reduces overall quality somewhat, but not significantly. 主要实现文件位于libavutil中的buffer. ffm Format rtp VideoCodec libx264 VideoFrameRate 15 VideoBufferSize 40 VideoBitRate 3000. bitrate=bitrate. Build size: 15. This release brings you some new codecs and formats, a lot of fixes, and many cleanups. Hello everyone, I'm working on a Project in FFMPEG, and right now i'm stuck on a Problem. One thing that annoys me is the current buffer size is only 1 sec long. If not specified defaults to 7*4096. Instead of MMAP, I am using USER POINTER to allocate memory for buffer. 0+10,20 out. Hi all, I'm a new babie in FFmpeg, i want to test record mp4 file with decklink studio 4k with command:-ffmpeg -f dshow -video_size 1920x1080 -pixel_format uyvy422 -framerate 25 -f dshow -i video="Decklink Video Capture":audio="Decklink Audio Capture" -pix_fmt yuv420p -r 25 -vcodec libx264 -crf 18 -b:v 6000k -preset ultrafast out. Sets maximum input buffer size in bytes. Hello I'm looking for help with a streaming problem. 2: Ffmpeg Restream Examples Restream Ffmpeg. avi -target pal-dvd -ps 2000000000 -aspect 16:9 video. avi is not the main issue. FFmpeg is great software which is offering just a huge amount of options for image and video processing, handling of multimedia files and streams. c source file. Bug 1041950 - Fix usage with FFmpeg version 54 and above; r=k17e. Minimum is 4096 and max is any large value (representable by an int). sounds like maybe you're not setting some timestamps up right? Anyway I have no idea/expertise in this area, all I can point you to is this https://trac. When encoding H. ffmpeg -loglevel debug -threads:v 2 -threads:a 8 -filter_threads 2 \ -thread_queue_size 512 -f x11grab -s 1920x1080 -framerate 60 -i :0. Warning: You must set frame_size_ptr to the allocated size of the output buffer before calling avcodec_decode_audio2 (). [udp @ 0x7fbbba40a0c0] end receive buffer size reported is 65536 [udp @ 0x7fbbba403180] No default whitelist set [udp @ 0x7fbbba403180] end receive buffer size reported is 65536 [rtsp @ 0x7fbbbb00ba00] setting jitter buffer size to 500. But when using this structure in read_header() of libavcodec/ffv1dec. I started using the. 音频编解码 ffmpeg 编解码 音频编码 视频音频编解码 音频解码 ffmpeg视频编码 aac编码 音频编解码和混音 AAC ADTS 解码 aac解码 FFMPEG/音视频编解码 音视频编解码 / ffmpeg 音频解码 音频编解码 音频编解码 音频编解码 音频编解码 音频编解码 音频编解码 音频编解码. Entries are sorted chronologically from oldest to youngest within each release, releases are sorted from youngest to oldest. I found a vulnerability of ffmpeg. Installation. -py3-none-any. 988 AM: [31356. ffmpeg -loglevel debug -threads:v 2 -threads:a 8 -filter_threads 2 \ -thread_queue_size 512 -f x11grab -s 1920x1080 -framerate 60 -i :0. m4v -ss 593. $ ffmpeg -i input. If you exceed the packet buffer size (i. If the linesize is not a multiple of 16 then there's no sense in aligning the start of the buffer to 16. 7 MiB Video Format : AVC Format/Info : Advanced Video Codec Format profile : [email protected] The size of the buffer passed in is data DWORD 0 and the size returned is data DWORD 1. I find that setting a bitrate calculated across a 6s buffer is an good starting point to control bitrate or filesize. An ffmpeg and SDL Tutorial. Encodes a subtitle frame from sub into buf. mov -vf scale=720x406 output. Bug 1041950 - Fix usage with FFmpeg version 54 and above; r=k17e. It should have a folder called ffmpeg. I would like the ability to override and change command line options sent to the ffmpeg. ffmpeg-formats - FFmpeg formats Set probing size in bytes, i. c the call to ff_dnn_load_model_native could cause a heap buffer overflow caused by a missing check of the variable operand_index while accessing network->operands and setting the name. enum {kBufferSize = 32 * 1024}; static int AVIOReadOperation (void * opaque, uint8_t * buf, int. As shown in Figure 3, encoding with a small buffer size reduces overall quality somewhat, but not significantly. The following abbreviations are recognized: sqcif 128x96 qcif 176x144 cif. This is used to set either the receive or send buffer size, depending on what the socket is used for. ffmpeg -r 25 -s 720*576 -f video4linux -i /dev/video -vcodec huffyuv toto. c in FFmpeg before 2. link to the batch files associated with the chapter, which includes the media files (bit. Im pretty new to using ffmpeg so dont go to hard on me. So add support for avcodec_decode_audio3. I want to capture and display the video framebuffer. Here are directions posted by a colleague for generating a seamless 60fps file. In this post, I will demonstrate how images and audio can be piped to ffmpeg. I get many buffer > underflow errors. Buffer length always zero in ffmpeg application in VPSS with v4l2. Defaults to ‘16’. this could cause a read buffer overflow and may use as a primitive to leak addresses or sensitive memory. mp4 -c:v libsvt_hevc -rc 1 -tune 1 - preset 1 -b:v 4M -maxrate 4M -bufsize 8M -c:a aac -b:a 128k -ac 2 - ar 48000 football_SVT_HEVC_4M_p1. The next filter's start_frame() callback is called and given a reference to this buffer.